#TITLE:ft island-I hope;
#SUBTITLE:;
#ARTIST:Unknown artist;
#TITLETRANSLIT:;
#SUBTITLETRANSLIT:;
#ARTISTTRANSLIT:;
#CREDIT:;
#BANNER:bn.jpg;
#BACKGROUND:bg.jpg;
#LYRICSPATH:;
#CDTITLE:cd.png;
#MUSIC:sdom1784.ogg;
#OFFSET:-2.107;
#SAMPLESTART:44.964;
#SAMPLELENGTH:12.000;
#SELECTABLE:YES;
#BPMS:0.000=140.007,1.000=140.000,7.000=140.007,8.000=140.000,14.000=140.007,15.000=140.000,22.000=140.007,23.000=140.000,30.000=140.007,31.000=140.000,38.000=140.007,39.000=140.000,46.000=140.007,47.000=140.000,54.000=140.007,55.000=140.000,62.000=140.007,63.000=140.000,70.000=140.007,71.000=140.000,78.000=140.007,79.000=140.000,86.000=140.007,87.000=140.000,94.000=140.007,95.000=140.000,102.000=140.007,103.000=140.000,110.000=140.007,111.000=140.000,114.000=140.007,115.000=140.000,118.000=140.007,119.000=140.000,122.000=140.007,123.000=140.000,126.000=140.007,127.000=140.000,130.000=140.007,131.000=140.000,134.000=140.007,135.000=140.000,138.000=140.007,139.000=140.000,142.000=140.007,143.000=140.000,146.000=140.007,147.000=140.000,150.000=140.007,151.000=140.000,154.000=140.007,155.000=140.000,158.000=140.007,159.000=140.000,162.000=140.007,163.000=140.000,166.000=140.007,167.000=140.000,170.000=140.007,171.000=140.000,174.000=140.007,175.000=140.000,178.000=140.007,179.000=140.000,182.000=140.007,183.000=140.000,186.000=140.007,187.000=140.000,190.000=140.007,191.000=140.000,194.000=140.007,195.000=140.000,198.000=140.007,199.000=140.000,202.000=140.007,203.000=140.000,206.000=140.007,207.000=140.000,210.000=140.007,211.000=140.000,214.000=140.007,215.000=140.000,218.000=140.007,219.000=140.000;
#STOPS:;
#BGCHANGES:;
// cache tags:
#FIRSTBEAT:0.000;
#LASTBEAT:360.000;
#SONGFILENAME:Songs/poyect/ft island-I hope/sdom1784.sm;
#HASMUSIC:1;
#HASBANNER:1;
#MUSICLENGTH:157.714;
// end cache tags

//---------------dance-single - ----------------
#NOTES:
     dance-single:
     :
     Hard:
     1:
     0.565,0.542,0.285,0.368,0.000,521.000,45.000,58.000,0.000,1.000:
1000
0100
0000
0010
0010
0100
0001
0000
,
1010
0010
0000
0100
0010
0000
1000
0010
,
0010
0100
0001
0001
0001
0000
1000
0010
,
0010
0100
0010
1000
0001
0100
0010
0110
,
1000
0010
0000
0110
0010
0000
0100
0010
,
1010
0000
0110
0010
0010
0100
1000
0001
,
0001
0001
0001
0001
0001
0001
2000
0000
,
0000
0000
0000
0000
,
0000
0000
0000
0000
0000
0000
0000
3010
,
0010
0100
0001
1000
0010
0200
0300
0010
,
0010
0100
1001
0010
0100
0020
0000
0130
,
0010
1000
0010
0100
0020
0000
0130
0001
,
0100
1001
0010
0100
0020
0000
0000
0130
,
0010
1000
0110
0000
0102
0000
0000
0013
,
0100
0010
1000
0100
0020
0000
0030
0110
,
1000
0010
0100
0001
1000
0010
0100
0001
,
1000
0010
0010
0010
0100
1000
0200
0000
,
0000
0300
0010
0010
0100
0000
2000
0000
,
0000
3000
0010
0010
0101
0000
0100
0010
,
0010
1000
0001
0110
0100
0020
0000
0000
,
0000
0000
0000
0030
1000
0100
0000
1001
,
0000
0110
0000
0101
0000
1010
0000
0101
,
0000
1010
0000
0101
0110
0000
0010
0002
,
0000
0000
0000
2003
,
3010
0010
0101
0000
1000
0010
0100
0001
,
0000
1010
0000
0001
0100
0010
0100
0010
,
1010
0100
0001
0100
0010
0100
0020
0030
,
1000
0010
0100
0010
0100
0001
2000
0000
,
3000
0010
0110
0100
0001
1000
0020
0000
,
0130
0010
0100
0001
1000
0010
0200
0000
,
0000
0300
0010
0010
1000
0001
0100
0110
,
0001
0000
1000
0110
0010
0000
0200
0000
,
0000
0000
0020
0300
2030
0000
3010
0100
,
0010
0100
0001
1000
0010
0200
0000
0000
,
0000
0000
0310
0010
0010
1000
0000
0100
,
0010
0000
0101
1000
0010
0000
0200
0000
,
0000
0310
0000
0010
1100
0000
0200
0000
,
0310
0000
0110
0001
0100
0010
2000
0000
,
0000
0000
0000
3010
0010
0100
0001
0100
,
0010
1000
0010
0100
0001
2000
0000
0000
,
0000
0000
0010
3000
0010
0100
0001
0000
,
0010
0001
1010
0000
0001
0100
1010
0001
,
0100
0010
1000
0001
0100
0010
0100
0010
,
1000
0001
0100
0010
0100
0001
1000
0010
,
0101
0100
0010
0100
0010
1000
0001
0100
,
0010
1000
0001
0100
0010
1000
0010
0100
,
0010
0100
0001
1000
0010
0100
0001
1000
,
0010
0100
0001
0000
1000
0010
0100
0010
,
1001
0100
0010
0100
0010
1000
0100
0010
,
0020
0000
0000
0000
0000
0030
2000
3100
,
0010
0020
0000
0000
0130
1000
0100
0010
,
0002
0000
0013
0100
1000
0000
0100
0020
,
0000
0000
0000
0000
0000
2030
0000
0200
,
3310
0010
0000
0010
0100
0010
0100
0001
,
1000
0010
0000
0200
0000
0300
0010
0001
,
0010
1100
0100
0010
0100
0011
0010
0200
,
0000
0000
0000
0000
0000
0000
0000
0320
,
0000
0030
0001
0010
1000
0010
0200
0000
,
0301
0001
0100
0010
1000
0200
0000
0000
,
0300
0010
0010
0100
1000
0100
0020
0000
,
0130
0020
0000
1030
0100
0020
0000
0000
,
0000
0130
0010
1000
0010
0000
0200
0000
,
0300
0002
0000
0010
0203
0000
0000
0000
,
0000
0310
0010
1000
0000
0110
0000
0002
,
0010
0103
0010
1000
0100
0020
0000
0000
,
0000
0230
0000
0300
0020
0000
1030
0100
,
0010
0000
0100
0010
0100
2000
0000
0000
,
0000
0000
3010
0010
0100
0010
0001
0000
,
0100
0110
0010
0000
1000
0100
0020
0000
,
0000
0000
0130
0010
1010
0100
0002
0000
,
0000
0103
0010
0100
0010
1000
0200
0000
,
0000
0300
0010
0010
0100
0010
1000
0000
,
0110
0100
0010
0100
0001
0000
0110
0000
,
1000
0010
0100
0001
0100
0010
1000
0010
,
0101
0100
0010
1000
0010
0100
0001
0100
,
0010
0100
0010
1000
0010
0100
0001
0100
,
0110
0010
1000
0001
0100
0010
0100
0001
,
1000
0010
0100
0010
0100
0001
1000
0010
,
0100
0010
0100
0001
1000
0010
0100
0010
,
0100
0001
1000
0010
0100
0010
0100
0001
,
1000
0010
0100
0001
1000
0010
0100
0010
,
0101
1000
0200
0000
0000
0320
0000
0130
,
0001
1000
0100
0010
0000
0100
0020
0000
,
0000
0000
0000
0130
0010
0100
0001
1000
,
0100
0010
0100
0010
0100
0002
0000
0000
,
0000
0103
0010
0100
0010
0000
1200
0000
,
0000
0310
0000
0100
0110
0000
0002
0000
,
0000
0000
0000
0103
0010
0100
0010
1000
,
0100
0010
0010
0100
0010
0100
0020
0000
,
1030
0100
0010
0010
0010
0000
0002
0000
,
0003
0000
0000
0000
;

//---------------dance-single - ----------------
#NOTES:
     dance-single:
     :
     Challenge:
     1:
     0.000,0.000,0.000,0.000,0.000,0.000,0.000,0.000,0.000,0.000:
0000
0000
0000
0000
;

//---------------dance-single - ----------------
#NOTES:
     dance-single:
     :
     Medium:
     1:
     0.643,0.625,0.127,0.361,0.932,633.000,20.000,57.000,0.000,0.000:
0000
1000
0000
1000
0000
0000
1000
0010
0000
0010
0000
0000
0100
0010
0000
0000
,
1000
0000
0010
0000
0010
0000
0100
0000
0010
0000
0000
0000
1000
0010
0000
0010
,
0000
0010
0000
0100
0000
0010
0000
1000
0000
0010
0000
0100
0010
0000
0010
0100
,
0000
0000
1000
0001
0000
0000
0100
0010
0000
0100
0010
0000
1000
0000
0100
0000
,
0010
0010
0000
0100
0000
0001
0000
0000
1000
0010
0000
0000
0100
0000
0010
0000
,
1000
0000
0100
0010
0000
0010
0100
0000
0001
0000
1000
0000
0000
0001
0001
0000
,
0001
0000
0001
0000
0001
0000
0001
0000
0001
0001
0000
0001
0000
2000
0000
0000
,
0000
0000
0000
0000
,
0000
0000
0000
0000
0000
0000
0000
0000
0000
0000
0000
0000
3000
0010
0000
0100
,
0000
0010
0000
1000
0000
0010
0100
0000
0020
0000
0000
0000
0000
0030
0100
0000
,
0010
1000
0000
0010
0000
0100
0010
0000
0001
0000
0000
0000
0100
0000
0010
0000
,
1000
0000
0010
0000
0100
0000
0001
0000
0000
1000
0000
0000
0000
0010
0000
0100
,
0001
0000
0000
0010
0000
1000
0000
0100
0000
0010
0000
0000
0000
0100
0000
0010
,
0000
0100
0001
0000
0010
0000
0000
0000
2000
0000
0000
0000
3000
0010
0000
0100
,
0010
0000
0001
0000
1000
0000
0100
0000
0000
0020
0000
0000
0030
0000
0100
0010
,
0000
0001
0000
1000
0000
0100
0010
0000
0001
0000
0100
0000
1000
0000
0110
0000
,
0010
0000
0010
0000
0010
0000
0010
0100
0000
1000
0000
0100
0020
0000
0000
0000
,
0000
0000
0000
0000
0030
1100
0000
0100
0010
0000
0010
0000
0200
0000
0000
0000
,
0000
0000
0310
0000
0010
0001
1000
0000
0100
0020
0000
0000
0000
0030
0000
0010
,
0000
0100
0001
0000
1000
0000
0110
0000
0010
0000
0200
0000
0000
0000
0000
0000
,
0000
0000
0000
0000
0000
0000
0301
0000
0002
0000
0000
0000
0000
0003
0020
0000
,
0000
0000
0230
0000
0000
0300
0020
0000
0000
0000
0030
2000
0000
0000
3020
0000
,
0000
0000
0230
0000
0000
0000
0300
0010
0000
0010
0100
0000
1000
0100
0000
0020
,
0000
0000
0000
0000
0000
0000
0000
0000
0000
0000
0030
0200
0000
0000
0000
0000
,
0300
0001
0000
0000
0001
0000
0010
0000
1000
0000
0100
0010
0000
0000
0001
0000
,
0010
0000
1000
0100
0010
0000
0010
0100
0001
0000
0000
0020
0000
0000
0000
0000
,
0030
0100
0010
0000
1000
0000
0100
0000
0010
0010
0000
0100
0000
0020
0000
0000
,
0000
0130
0000
0010
0000
0000
0100
0000
0010
0000
0000
2000
0000
0000
0000
0000
,
3000
0010
0000
0010
0100
0000
0010
0000
1000
0000
0100
0000
0020
0000
0000
0000
,
0000
0030
0100
0000
0000
0010
0000
0010
1000
0000
0100
0000
0020
0000
0000
0000
,
0000
0030
0000
0001
0000
0001
0000
0010
1000
0000
0000
0100
0010
0010
0000
0000
,
0110
0000
0002
0000
0010
0000
1003
0000
0100
0010
0000
0010
0000
0200
0000
0000
,
0000
0000
0000
0000
0300
0010
0000
0000
0200
0000
0000
0300
0010
1000
0000
0100
,
0010
0000
0010
0000
0110
0000
0001
1000
0000
0100
0000
0020
0000
0000
0000
0000
,
0000
0000
0000
0030
0100
0000
0010
0100
0010
0000
0010
1000
0000
0100
0001
0000
,
0001
0100
0000
0010
1000
0000
0100
0010
0000
0020
0000
0000
0000
0030
0200
0000
,
0000
0300
0010
0000
0010
0000
1000
0000
0100
0010
0010
0000
0000
0002
0000
0000
,
0000
0000
0003
0100
0010
0010
0000
0100
0000
1000
0000
0100
0000
0020
0000
0000
,
0000
0000
0000
0000
0030
0100
0000
1000
0000
0100
0010
0000
0010
0010
0100
0000
,
0010
0000
1000
0000
0110
0000
0010
0100
0000
0000
0001
0000
0000
0010
0000
0100
,
1000
0000
0000
0100
0000
0010
0000
0000
0110
0000
0000
0001
0000
0010
0000
0100
,
0000
0010
0000
1000
0000
0010
0000
0100
0010
0000
0100
0001
0000
0000
0010
0100
,
0000
0010
1000
0000
0000
0110
0000
0010
0100
0000
0001
0100
0000
0010
1000
0000
,
0100
0010
0000
0010
0100
0000
0001
0000
0100
0010
1000
0000
0100
0010
0010
0000
,
0100
0001
0000
1010
0000
0100
0010
0000
0010
0000
0100
0000
0010
0000
0100
0001
,
1000
0000
0000
0100
0010
0010
0000
0100
0000
0010
0000
0001
0000
0010
0100
1000
,
0000
0100
0010
0000
0010
0100
0000
1001
0000
0100
0000
0010
0000
0010
0100
0000
,
0001
1000
0000
0100
0000
0010
0010
0000
0100
0000
0010
0000
1000
0001
0000
0100
,
0010
0000
0010
1000
0000
0100
0010
0000
0010
0000
0100
0001
1010
0000
0100
0020
,
0000
0000
0000
0000
0000
0000
0000
0000
0000
1030
0000
0100
0010
0010
0000
0100
,
0000
0020
0000
0000
0000
0000
0000
0000
0130
0000
1000
0100
0010
0000
0010
0000
,
0100
0000
0010
0010
0100
0000
1000
0100
0010
0000
0010
0000
0200
0000
0000
0000
,
0000
0000
0000
0000
0000
0000
0000
0300
0010
0000
0010
0000
0010
1000
0000
0100
,
0010
0000
0010
0000
0100
0001
0000
0000
0010
0000
0100
1000
0000
0100
0010
0000
,
0010
0100
0000
0010
0002
0000
0000
0000
0000
0000
0000
0000
0003
0010
0010
0000
,
1000
0100
0010
0000
0010
0100
0010
0000
0100
1000
0100
0010
0000
0011
0000
0002
,
0000
0000
0000
0000
0000
0000
0000
0000
0000
0003
0010
0000
0000
0000
2000
0000
,
0000
0000
3010
0000
0010
0000
0100
0000
0010
0100
0010
0000
0020
0000
0000
0030
,
1000
0010
0000
0010
0000
0100
0010
0000
0010
0020
0000
0000
0000
0000
0000
0000
,
0000
0030
0100
0000
0010
0010
0000
0000
1000
0000
0100
0010
0000
0020
0000
0000
,
0000
0130
0000
0010
0000
0000
0110
0000
0000
2000
0000
0000
0000
3000
0200
0000
,
0000
0000
0000
0310
0010
0000
0010
0000
0000
0101
0000
0000
0020
0000
0000
0000
,
0000
1030
0000
0100
0010
0000
0010
0000
0100
0000
0000
0020
0000
0000
0000
0000
,
0000
0000
0030
1000
0000
0100
0010
0010
0000
0100
0010
0000
0100
0010
0000
0010
,
1000
0000
0100
0010
0000
0010
0001
0000
0010
0100
1000
0000
0100
0020
0000
0000
,
0000
0000
0000
0030
0100
0000
1000
0000
0100
0000
0010
0000
0000
0010
0000
0010
,
0100
1000
0000
0110
0000
0010
0010
0000
0100
1000
0000
0100
0020
0000
0000
0000
,
0000
0000
0000
0000
0000
0130
1000
0100
0010
0000
0010
0100
0000
0010
0100
0010
,
0000
1000
0000
0001
0000
0010
0000
0100
0010
0000
0010
0200
0000
0000
0000
0000
,
0000
0000
0300
0010
0000
0000
0010
0000
1000
0000
0100
0020
0000
0000
0000
0000
,
0030
0000
0100
0010
0000
0010
0000
0010
0100
0000
0010
0000
0000
2000
0000
0000
,
0000
0000
0000
0000
0000
0000
3000
0010
0010
0000
0010
0000
0100
0001
0000
0000
,
0001
1000
0000
0100
0010
0000
0010
0000
0100
0000
0001
0000
0020
0000
0000
0030
,
0100
0010
0000
0000
0010
0100
0000
0010
0000
0000
0100
0000
1000
0000
0100
0010
,
0000
0010
0100
0001
0010
0000
0000
1100
0000
0100
0010
0000
0000
0011
0000
0100
,
0010
0000
0000
0000
0010
0000
0010
0000
0100
0000
0010
0000
0100
0010
0000
1000
,
0000
0100
0010
0000
0010
0100
0000
0001
0000
0100
0000
1000
0000
0110
0000
0010
,
0100
0001
0000
1000
0000
0100
0000
0000
0010
0000
0000
0100
0010
0000
0010
0100
,
0000
0000
0010
0000
2000
0000
0000
3000
0010
0000
0010
0000
0100
0010
0000
0100
,
0010
0000
1000
0000
0200
0000
0000
0000
0300
0010
0000
0010
0100
0000
0001
0000
,
1000
0000
0110
0000
0010
0100
0010
0000
0100
0010
0000
0100
0000
0010
0000
1000
,
0000
0000
0100
0010
0000
0002
0000
0000
0000
0000
0010
0003
0000
0100
0010
0000
,
0100
1000
0110
0010
0100
0020
0000
0000
,
0000
0000
0000
0000
0030
1000
0000
0100
0010
0000
0010
0000
0010
0000
0100
1000
,
0000
0100
0000
0010
0000
0010
0000
0100
0010
0000
0100
2000
0000
0000
0000
0000
,
0000
0000
0000
3010
0000
0010
0100
0000
0001
0000
0020
0000
0000
0000
0000
0000
,
0000
0000
0130
0000
0010
0000
0000
1000
0000
0100
0010
0010
0000
0000
0200
0000
,
0000
0000
0000
0000
0000
0000
0300
0010
0010
0000
0000
1000
0000
0100
0001
0000
,
0001
0000
0010
0000
0000
0100
0010
0000
0000
0100
1000
0000
0200
0000
0000
0000
,
0000
0000
0000
0000
0000
0310
0000
0000
;
